Разделы сайта


Направления

Поиск по сайту

Реклама





Календарь

«    Июнь 2012    »
ПнВтСрЧтПтСбВс
 123
45678910
11121314151617
18192021222324
252627282930 

Архив

Реклама



Ninet Tayeb - Sympathetic Nervous System (2012) WavPack  







Название: Sympathetic Nervous System

Исполнитель: Ninet Tayeb

Год: 2012

Жанр: Pop Rock, Alternative

Страна: Israel



Продолжительность: 52:35

Формат/Кодек: WavPack

Битрейт аудио: lossless





Трек-лист


01. Sympathetic Nervous System (2:54)

02. Sweaty Palm (3:32)

03. Room (3:23)

04. I CU (3:16)

05. Unrequited Star (4:20)

06. 27 (5:02)

07. What Are You People (3:14)

08. Drowning (3:21)

09. O'Computer (3:30)

10. Yellow Tree (6:07)

11. Find My Love (13:56)



Отчёт EAC
Exact Audio Copy V1.0 beta 3 from 29. August 2011

EAC extraction logfile from 3. June 2012, 9:53

Ninet Tayeb / Sympathetic Nervous System [Acum 02-6182]

Used drive : HL-DT-STDVDRAM GH22NS90 Adapter: 4 ID: 0

Read mode : Secure

Utilize accurate stream : Yes

Defeat audio cache : Yes

Make use of C2 pointers : No

Read offset correction : 6

Overread into Lead-In and Lead-Out : No

Fill up missing offset samples with silence : Yes

Delete leading and trailing silent blocks : No

Null samples used in CRC calculations : Yes

Used interface : Installed external ASPI interface

Used output format : User Defined Encoder

Selected bitrate : 1024 kBit/s

Quality : High

Add ID3 tag : No

Command line compressor : D:Program Files (x86)Exact Audio Copywavpack.exe

Additional command line options : -hlmx2

TOC of the extracted CD

Track | Start | Length | Start sector | End sector

---------------------------------------------------------

1 | 0:00.00 | 2:54.35 | 0 | 13084

2 | 2:54.35 | 3:32.17 | 13085 | 29001

3 | 6:26.52 | 3:22.70 | 29002 | 44221

4 | 9:49.47 | 3:16.29 | 44222 | 58950

5 | 13:06.01 | 4:19.52 | 58951 | 78427

6 | 17:25.53 | 5:02.17 | 78428 | 101094

7 | 22:27.70 | 3:14.00 | 101095 | 115644

8 | 25:41.70 | 3:20.51 | 115645 | 130695

9 | 29:02.46 | 3:29.61 | 130696 | 146431

10 | 32:32.32 | 6:07.00 | 146432 | 173956

11 | 38:39.32 | 13:55.64 | 173957 | 236645

Range status and errors

Selected range

Filename D:eacNinet TayebNinet Tayeb - Sympathetic Nervous System [Acum 02-6182].wav

Peak level 100.0 %

Extraction speed 1.7 X

Range quality 100.0 %

Test CRC 150484F8

Copy CRC 150484F8

Copy OK

No errors occurred

AccurateRip summary

Track 1 not present in database

Track 2 not present in database

Track 3 not present in database

Track 4 not present in database

Track 5 not present in database

Track 6 not present in database

Track 7 not present in database

Track 8 not present in database

Track 9 not present in database

Track 10 not present in database

Track 11 not present in database

None of the tracks are present in the AccurateRip database

End of status report

---- CUETools DB Plugin V2.1.3

[CTDB TOCID: dvHr4FJlS0jsS30hKkexxOujM3c-] disk not present in database, Submit result: dvHr4FJlS0jsS30hKkexxOujM3c- has been uploaded

==== Log checksum 6F3A7DE09607A6D84DD158216DC6DCC4D81DD4CD7BDC28063D870BBA2BC7D2C6 ====




Скачать с depositfiles.com:

http://depositfiles.com/files/9us12stll

Скачать с letitbit.net:

http://letitbit.net/download/95607.9aace5101648bf6404b831dbc051/000000004fcdfccbdc3dc.rar.html

Скачать с turbobit.net:

http://turbobit.net/gyctt7w9cuum.html